<?xml version="1.0" standalone="no"?>
<!DOCTYPE svg PUBLIC "-//W3C//DTD SVG 1.1//EN" "http://www.w3.org/Graphics/SVG/1.1/DTD/svg11.dtd">
<svg xmlns="http://www.w3.org/2000/svg">
<defs >
<font id="OpenSans" horiz-adv-x="1219" ><font-face
    font-family="Open Sans"
    units-per-em="2048"
    panose-1="2 11 8 6 3 5 4 2 2 4"
    ascent="2189"
    descent="-600"
    alphabetic="0" />
<glyph unicode=" " glyph-name="space" horiz-adv-x="532" />
<glyph unicode="!" glyph-name="exclam" horiz-adv-x="586" d="M391 485H150L307 1462H647L391 485ZM25 115Q25 205 78 259T229 313Q297 313 338 275T379 168Q379 81 324 27T180 -27Q107 -27 66 10T25 115Z" />
<glyph unicode="&quot;" glyph-name="quotedbl" horiz-adv-x="928" d="M549 1462L397 934H201L272 1462H549ZM954 1462L803 934H604L678 1462H954Z" />
<glyph unicode="#" glyph-name="numbersign" horiz-adv-x="1323" d="M1036 846L967 614H1225L1206 408H909L793 0H573L690 408H496L381 0H166L279 408H41L59 614H336L406 846H154L172 1055H461L580 1462H797L680 1055H879L995 1462H1210L1094 1055H1333L1315 846H1036ZM553
614H750L819 846H623L553 614Z" />
<glyph unicode="$" glyph-name="dollar" horiz-adv-x="1128" d="M1034 496Q1034 312 909 205T541 80L502 -119H362L406 82Q197 94 51 168V434Q249 327 455 317L526 639Q363 700 285 790T207 1004Q207 1177 334 1283T684 1405L719 1556H858L825 1405Q991 1383 1120
1315L1014 1083Q882 1148 772 1157L709 858Q840 807 904 759T1001 646T1034 496ZM594 322Q657 331 696 367T735 465Q735 511 711 540T651 584L594 322ZM633 1157Q571 1150 537 1116T502 1022Q502 943 582 911L633 1157Z" />
<glyph unicode="%" glyph-name="percent" horiz-adv-x="1753" d="M518 1274Q455 1274 408 1146T360 868Q360 772 416 772Q481 772 528 903T575 1178Q575 1274 518 1274ZM821 1165Q821 999 765 855T614 638T397 565Q258 565 187 648T115 885Q115 1054 170 1196T319
1411T535 1483Q672 1483 746 1403T821 1165ZM1554 1462L471 0H231L1319 1462H1554ZM1376 690Q1337 690 1301 634T1242 480T1219 285Q1219 188 1274 188Q1315 188 1351 243T1410 397T1434 594Q1434 690 1376 690ZM1679 590Q1679 423 1625 277T1477 56T1262 -18Q1118
-18 1046 60T973 283Q973 460 1026 605T1174 825T1393 899Q1530 899 1604 821T1679 590Z" />
<glyph unicode="&amp;" glyph-name="ampersand" horiz-adv-x="1450" d="M1325 0H975L903 98Q728 -20 500 -20Q291 -20 180 77T68 358Q68 503 146 606T420 807Q344 937 344 1065Q344 1260 461 1372T778 1485Q947 1485 1044 1403T1141 1178Q1141 898 776 752L971
489Q1015 546 1051 610T1130 784H1430Q1297 471 1120 287L1325 0ZM541 623Q453 572 418 519T383 387Q383 322 428 279T545 236Q660 236 766 295L541 623ZM662 920Q775 979 817 1031T860 1143Q860 1200 830 1225T760 1251Q694 1251 658 1205T621 1085Q621 1039 633
993T662 920Z" />
<glyph unicode="&apos;" glyph-name="quotesingle" horiz-adv-x="522" d="M549 1462L397 934H201L272 1462H549Z" />
<glyph unicode="(" glyph-name="parenleft" horiz-adv-x="694" d="M74 281Q74 620 196 907T578 1462H840Q585 1184 463 889T340 270Q340 -38 457 -324H223Q74 -58 74 281Z" />
<glyph unicode=")" glyph-name="parenright" horiz-adv-x="694" d="M618 858Q618 516 494 228T115 -324H-147Q352 221 352 868Q352 1175 236 1462H469Q618 1198 618 858Z" />
<glyph unicode="*" glyph-name="asterisk" horiz-adv-x="1116" d="M885 1522L772 1169L1159 1198L1141 944L803 987L963 651L717 578L627 915L430 637L223 801L498 1049L172 1141L258 1378L596 1204L629 1573L885 1522Z" />
<glyph unicode="+" glyph-name="plus" horiz-adv-x="1128" d="M475 612H109V831H475V1200H694V831H1061V612H694V248H475V612Z" />
<glyph unicode="," glyph-name="comma" horiz-adv-x="569" d="M377 238L385 215Q267 -40 123 -264H-102Q-28 -97 92 238H377Z" />
<glyph unicode="-" glyph-name="hyphen" horiz-adv-x="659" d="M41 424L94 674H618L565 424H41Z" />
<glyph unicode="." glyph-name="period" horiz-adv-x="584" d="M25 115Q25 205 78 259T229 313Q297 313 338 275T379 168Q379 81 324 27T180 -27Q107 -27 66 10T25 115Z" />
<glyph unicode="/" glyph-name="slash" horiz-adv-x="862" d="M1014 1462L205 0H-90L719 1462H1014Z" />
<glyph unicode="0" glyph-name="zero" horiz-adv-x="1128" d="M1110 1012Q1110 542 942 261T469 -20Q271 -20 169 102T66 467Q66 764 150 1004T378 1364T711 1485Q1110 1485 1110 1012ZM684 1235Q604 1235 535 1131T417 829T369 461Q369 346 396 288T494 229Q575
229 644 335T760 636T807 1022Q807 1133 777 1184T684 1235Z" />
<glyph unicode="1" glyph-name="one" horiz-adv-x="1128" d="M688 0H383L563 829Q598 981 639 1116Q630 1108 578 1069T315 899L182 1114L748 1462H997L688 0Z" />
<glyph unicode="2" glyph-name="two" horiz-adv-x="1128" d="M913 0H-49L-6 213L471 637Q651 796 719 891T788 1071Q788 1146 747 1185T637 1225Q571 1225 502 1192T330 1073L184 1276Q316 1388 436 1435T686 1483Q876 1483 987 1385T1098 1126Q1098 1019 1057
925T935 737T668 492L399 270V260H967L913 0Z" />
<glyph unicode="3" glyph-name="three" horiz-adv-x="1128" d="M1104 1149Q1104 993 1010 887T748 752V748Q879 722 946 642T1014 440Q1014 307 940 202T728 39T401 -20Q162 -20 14 59V326Q98 276 196 251T387 225Q545 225 630 288T715 465Q715 637 457 637H319L365
858H438Q605 858 701 920T797 1092Q797 1159 754 1196T633 1233Q499 1233 346 1133L219 1337Q343 1418 451 1450T698 1483Q888 1483 996 1393T1104 1149Z" />
<glyph unicode="4" glyph-name="four" horiz-adv-x="1128" d="M1028 303H858L795 0H502L565 303H-25L23 537L793 1462H1104L909 543H1079L1028 303ZM616 543L674 791Q686 849 714 955T756 1096H750Q715 1033 618 915L305 543H616Z" />
<glyph unicode="5" glyph-name="five" horiz-adv-x="1128" d="M623 922Q806 922 912 819T1018 532Q1018 365 947 240T738 48T408 -20Q291 -20 190 3T27 61V330Q201 231 379 231Q533 231 620 302T707 496Q707 590 650 637T483 684Q381 684 270 651L166 729L373
1462H1128L1073 1200H584L496 907Q568 922 623 922Z" />
<glyph unicode="6" glyph-name="six" horiz-adv-x="1128" d="M88 469Q88 671 149 864T316 1199T573 1413T930 1485Q1055 1485 1153 1458L1102 1212Q1018 1237 911 1237Q717 1237 598 1129T412 784H416Q531 950 727 950Q884 950 969 853T1055 580Q1055 411 984
267T794 51T516 -20Q304 -20 196 107T88 469ZM530 227Q629 227 691 321T754 557Q754 628 721 670T618 713Q558 713 504 678T416 582T383 422Q383 331 423 279T530 227Z" />
<glyph unicode="7" glyph-name="seven" horiz-adv-x="1128" d="M78 0L815 1202H186L242 1462H1217L1176 1268L424 0H78Z" />
<glyph unicode="8" glyph-name="eight" horiz-adv-x="1128" d="M721 1485Q844 1485 936 1443T1077 1325T1126 1151Q1126 1017 1046 918T815 766Q1032 625 1032 401Q1032 279 969 183T788 33T514 -20Q300 -20 178 80T55 350Q55 648 403 776Q238 908 238 1075Q238
1194 296 1287T464 1433T721 1485ZM582 643Q466 598 409 536T352 383Q352 302 402 255T537 207Q630 207 684 260T739 399Q739 472 703 530T582 643ZM694 1260Q618 1260 573 1214T528 1094Q528 962 651 893Q836 965 836 1114Q836 1182 797 1221T694 1260Z" />
<glyph unicode="9" glyph-name="nine" horiz-adv-x="1128" d="M1092 1001Q1092 721 993 468T729 98T326 -20Q198 -20 86 12V268Q197 227 313 227Q434 227 520 276T664 414T764 672H760Q649 514 465 514Q302 514 213 617T123 903Q123 1069 196 1208T392 1416T678
1485Q881 1485 986 1362T1092 1001ZM645 1237Q580 1237 530 1195T452 1081T424 928Q424 841 461 797T567 752Q627 752 678 788T760 888T791 1047Q791 1131 756 1184T645 1237Z" />
<glyph unicode=":" glyph-name="colon" horiz-adv-x="584" d="M207 940Q207 1032 262 1085T412 1139Q480 1139 520 1101T561 993Q561 907 507 853T362 799Q290 799 249 835T207 940ZM25 115Q25 205 78 259T229 313Q297 313 338 275T379 168Q379 81 324 27T180
-27Q107 -27 66 10T25 115Z" />
<glyph unicode=";" glyph-name="semicolon" horiz-adv-x="584" d="M385 215Q267 -40 123 -264H-102Q-28 -97 92 238H377L385 215ZM207 940Q207 1032 262 1085T412 1139Q480 1139 520 1101T561 993Q561 907 507 853T362 799Q290 799 249 835T207 940Z" />
<glyph unicode="&lt;" glyph-name="less" horiz-adv-x="1128" d="M1061 203L109 641V784L1061 1280V1040L418 723L1061 442V203Z" />
<glyph unicode="=" glyph-name="equal" horiz-adv-x="1128" d="M109 807V1024H1061V807H109ZM109 418V637H1061V418H109Z" />
<glyph unicode="&gt;" glyph-name="greater" horiz-adv-x="1128" d="M109 442L752 723L109 1040V1280L1061 784V641L109 203V442Z" />
<glyph unicode="?" glyph-name="question" horiz-adv-x="940" d="M260 485L274 563Q293 666 347 740T520 895Q644 979 677 1022T711 1118Q711 1237 578 1237Q528 1237 472 1221T270 1137L178 1358Q408 1483 623 1483Q800 1483 903 1396T1006 1151Q1006 1068 978
1002T895 879T705 731Q641 688 609 658T556 594T518 485H260ZM166 115Q166 206 221 259T371 313Q439 313 479 275T520 168Q520 81 465 27T322 -27Q248 -27 207 11T166 115Z" />
<glyph unicode="@" glyph-name="at" horiz-adv-x="1753" d="M1733 840Q1733 667 1669 519T1492 288T1237 205Q1149 205 1093 243T1020 352H1014Q964 275 901 240T754 205Q627 205 556 284T485 514Q485 661 552 790T740 995T1008 1071Q1193 1071 1335 1016L1229
596Q1218 552 1210 520T1202 455Q1202 387 1260 387Q1326 387 1384 451T1476 622T1511 836Q1511 1049 1388 1161T1028 1274Q825 1274 662 1180T407 914T315 522Q315 279 449 142T825 4Q942 4 1044 24T1266 90V-96Q1036 -186 801 -186Q584 -186 423 -101T177 141T92
500Q92 779 212 997T555 1338T1053 1462Q1371 1462 1552 1299T1733 840ZM995 889Q913 889 850 838T750 701T713 526Q713 461 737 424T807 387Q948 387 1020 657L1077 879Q1041 889 995 889Z" />
<glyph unicode="A" glyph-name="A" horiz-adv-x="1286" d="M842 348H369L197 0H-123L643 1468H1016L1163 0H866L842 348ZM827 608L801 958Q791 1089 791 1211V1247Q747 1127 682 993L494 608H827Z" />
<glyph unicode="B" glyph-name="B" horiz-adv-x="1270" d="M788 1462Q1017 1462 1134 1381T1251 1137Q1251 987 1168 890T932 760V754Q1032 728 1091 658T1151 477Q1151 248 998 124T575 0H53L362 1462H788ZM545 883H694Q815 883 875 931T936 1071Q936 1208 766
1208H614L545 883ZM412 256H592Q709 256 775 314T842 475Q842 637 659 637H494L412 256Z" />
<glyph unicode="C" glyph-name="C" horiz-adv-x="1253" d="M905 1227Q773 1227 668 1146T498 908T434 569Q434 402 502 321T721 240Q867 240 1059 317V57Q860 -20 659 -20Q405 -20 264 129T123 553Q123 815 227 1035T505 1370T905 1485Q1030 1485 1127 1463T1335
1380L1217 1130Q1111 1189 1042 1208T905 1227Z" />
<glyph unicode="D" glyph-name="D" horiz-adv-x="1386" d="M1323 909Q1323 629 1225 423T942 108T504 0H53L362 1462H758Q1028 1462 1175 1319T1323 909ZM518 256Q666 256 776 332T948 555T1010 893Q1010 1047 938 1127T729 1208H614L412 256H518Z" />
<glyph unicode="E" glyph-name="E" horiz-adv-x="1110" d="M870 0H53L362 1462H1180L1126 1208H614L547 887H1024L969 633H492L412 256H924L870 0Z" />
<glyph unicode="F" glyph-name="F" horiz-adv-x="1087" d="M358 0H53L362 1462H1176L1122 1208H614L535 831H1008L952 578H479L358 0Z" />
<glyph unicode="G" glyph-name="G" horiz-adv-x="1413" d="M754 821H1317L1155 59Q1021 13 907 -3T664 -20Q405 -20 264 127T123 549Q123 817 230 1033T531 1367T979 1485Q1197 1485 1389 1386L1274 1135Q1200 1175 1126 1199T965 1223Q812 1223 692 1140T503
904T434 573Q434 401 506 321T729 240Q805 240 899 264L965 563H698L754 821Z" />
<glyph unicode="H" glyph-name="H" horiz-adv-x="1434" d="M1135 0H829L963 631H492L358 0H53L362 1462H668L547 889H1018L1139 1462H1444L1135 0Z" />
<glyph unicode="I" glyph-name="I" horiz-adv-x="659" d="M53 0L365 1462H670L358 0H53Z" />
<glyph unicode="J" glyph-name="J" horiz-adv-x="678" d="M-135 -430Q-229 -430 -322 -403V-150Q-234 -170 -158 -170Q-59 -170 2 -110T92 82L385 1462H690L387 39Q335 -206 212 -318T-135 -430Z" />
<glyph unicode="K" glyph-name="K" horiz-adv-x="1255" d="M1141 0H803L592 592L467 522L358 0H53L362 1462H668L516 760L674 965L1083 1462H1444L850 762L1141 0Z" />
<glyph unicode="L" glyph-name="L" horiz-adv-x="1061" d="M53 0L362 1462H668L412 256H924L870 0H53Z" />
<glyph unicode="M" glyph-name="M" horiz-adv-x="1802" d="M838 369L1389 1462H1812L1503 0H1223L1368 692Q1421 939 1473 1133H1468L899 0H618L557 1133H553Q542 1045 515 902T328 0H53L362 1462H766L834 369H838Z" />
<glyph unicode="N" glyph-name="N" horiz-adv-x="1546" d="M1247 0H905L549 1106H543L539 1074Q507 858 473 688L328 0H53L362 1462H719L1059 385H1063Q1075 461 1102 602T1282 1462H1556L1247 0Z" />
<glyph unicode="O" glyph-name="O" horiz-adv-x="1495" d="M1432 938Q1432 655 1333 432T1062 94T666 -20Q410 -20 267 127T123 537Q123 802 222 1024T495 1366T897 1485Q1152 1485 1292 1341T1432 938ZM872 1227Q751 1227 650 1136T492 884T434 537Q434 390 500
315T688 240Q809 240 908 327T1064 573T1120 930Q1120 1072 1055 1149T872 1227Z" />
<glyph unicode="P" glyph-name="P" horiz-adv-x="1188" d="M522 774H578Q720 774 801 843T883 1028Q883 1208 688 1208H614L522 774ZM1190 1036Q1190 795 1021 658T553 520H467L358 0H53L362 1462H700Q942 1462 1066 1356T1190 1036Z" />
<glyph unicode="Q" glyph-name="Q" horiz-adv-x="1495" d="M1432 938Q1432 622 1310 383T975 45L1229 -348H870L692 -20H666Q410 -20 267 127T123 537Q123 802 222 1024T495 1366T897 1485Q1152 1485 1292 1341T1432 938ZM872 1227Q751 1227 650 1136T492 884T434
537Q434 390 500 315T688 240Q809 240 908 327T1064 573T1120 930Q1120 1072 1055 1149T872 1227Z" />
<glyph unicode="R" glyph-name="R" horiz-adv-x="1247" d="M530 813H608Q739 813 812 870T885 1044Q885 1126 838 1167T688 1208H614L530 813ZM477 561L358 0H53L362 1462H721Q958 1462 1077 1360T1196 1061Q1196 903 1113 790T874 621L1135 0H803L596 561H477Z" />
<glyph unicode="S" glyph-name="S" horiz-adv-x="1085" d="M946 432Q946 223 798 102T397 -20Q176 -20 41 70V344Q234 236 399 236Q511 236 574 278T637 395Q637 438 624 470T585 531T461 633Q323 732 267 829T211 1038Q211 1167 273 1268T449 1426T713 1483Q930
1483 1110 1384L1001 1151Q845 1225 713 1225Q630 1225 577 1180T524 1061Q524 1000 557 955T705 834Q826 754 886 658T946 432Z" />
<glyph unicode="T" glyph-name="T" horiz-adv-x="1087" d="M571 0H266L520 1204H168L223 1462H1233L1178 1204H825L571 0Z" />
<glyph unicode="U" glyph-name="U" horiz-adv-x="1415" d="M1434 1462L1233 516Q1176 250 1015 115T596 -20Q384 -20 263 93T141 401Q141 473 156 539L352 1462H657L463 543Q446 469 446 418Q446 240 635 240Q758 240 830 316T934 545L1128 1462H1434Z" />
<glyph unicode="V" glyph-name="V" horiz-adv-x="1208" d="M535 299Q613 520 645 582L1077 1462H1393L645 0H311L184 1462H479L530 582Q534 537 534 449Q532 346 528 299H535Z" />
<glyph unicode="W" glyph-name="W" horiz-adv-x="1831" d="M1006 1018Q960 872 891 719L567 0H229L184 1462H471L477 664Q477 612 473 491T463 317H469Q491 381 536 497T596 643L965 1462H1235L1256 589Q1256 443 1247 317H1253Q1296 446 1384 666L1714 1462H2023L1376
0H1030L1008 721L1006 860Q1006 948 1010 1018H1006Z" />
<glyph unicode="X" glyph-name="X" horiz-adv-x="1241" d="M1124 0H793L621 543L225 0H-117L459 764L221 1462H541L694 944L1057 1462H1401L856 737L1124 0Z" />
<glyph unicode="Y" glyph-name="Y" horiz-adv-x="1155" d="M627 870L1001 1462H1343L725 559L606 0H303L422 559L186 1462H498L627 870Z" />
<glyph unicode="Z" glyph-name="Z" horiz-adv-x="1098" d="M920 0H-61L-23 201L754 1206H211L264 1462H1200L1159 1260L377 256H973L920 0Z" />
<glyph unicode="[" glyph-name="bracketleft" horiz-adv-x="678" d="M436 -324H-37L344 1462H817L772 1251H557L266 -113H481L436 -324Z" />
<glyph unicode="\" glyph-name="backslash" horiz-adv-x="862" d="M481 1462L705 0H438L221 1462H481Z" />
<glyph unicode="]" glyph-name="bracketright" horiz-adv-x="678" d="M-92 -113H121L412 1251H197L242 1462H715L334 -324H-137L-92 -113Z" />
<glyph unicode="^" glyph-name="asciicircum" horiz-adv-x="1081" d="M20 520L639 1470H786L1063 520H840L666 1153L264 520H20Z" />
<glyph unicode="_" glyph-name="underscore" horiz-adv-x="819" d="M635 -324H-186L-156 -184H666L635 -324Z" />
<glyph unicode="`" glyph-name="grave" horiz-adv-x="1135" d="M934 1241H750Q679 1310 612 1394T508 1548V1569H819Q855 1421 934 1266V1241Z" />
<glyph unicode="a" glyph-name="a" horiz-adv-x="1217" d="M406 -20Q259 -20 175 86T90 385Q90 583 162 762T351 1040T608 1139Q705 1139 775 1097T885 975H893L950 1118H1182L944 0H715L729 145H725Q591 -20 406 -20ZM524 223Q593 223 657 290T760 471T799 731Q799
802 761 848T659 895Q591 895 530 823T432 633T395 399Q395 311 428 267T524 223Z" />
<glyph unicode="b" glyph-name="b" d="M813 1139Q959 1139 1043 1031T1128 733Q1128 543 1060 366T873 84T610 -20Q416 -20 334 143H326L268 0H37L367 1556H668L606 1268Q565 1086 522 969H530Q608 1067 672 1103T813 1139ZM692 895Q624 895 562 830T460 650T420
399Q420 319 457 271T559 223Q626 223 687 292T785 481T823 719Q823 895 692 895Z" />
<glyph unicode="c" glyph-name="c" horiz-adv-x="989" d="M506 -20Q305 -20 198 87T90 391Q90 603 164 776T374 1044T682 1139Q864 1139 1010 1067L918 838Q864 861 812 878T694 895Q609 895 541 831T434 656T395 416Q395 320 440 272T567 223Q643 223 708 246T842
305V59Q690 -20 506 -20Z" />
<glyph unicode="d" glyph-name="d" horiz-adv-x="1217" d="M406 -20Q259 -20 175 87T90 387Q90 583 161 761T350 1039T608 1139Q690 1139 749 1102T862 975H870L872 1003Q878 1113 897 1198L973 1556H1274L944 0H715L729 145H725Q654 58 577 19T406 -20ZM532 223Q598
223 660 291T761 474T799 719Q799 799 762 847T659 895Q591 895 530 823T432 633T395 399Q395 223 532 223Z" />
<glyph unicode="e" glyph-name="e" horiz-adv-x="1141" d="M696 922Q608 922 530 842T428 647H473Q628 647 714 695T801 827Q801 922 696 922ZM532 -20Q322 -20 206 93T90 412Q90 619 172 789T396 1049T715 1139Q892 1139 991 1058T1090 834Q1090 647 923 546T446
444H395L393 423V403Q393 312 444 260T592 207Q679 207 750 226T922 293V66Q750 -20 532 -20Z" />
<glyph unicode="f" glyph-name="f" horiz-adv-x="764" d="M-45 -492Q-149 -492 -219 -467V-225Q-158 -246 -104 -246Q-43 -246 3 -206T68 -76L272 889H109L139 1034L322 1118L340 1202Q381 1392 478 1479T752 1567Q883 1567 987 1518L907 1294Q838 1325 774 1325Q717
1325 682 1285T635 1180L623 1118H842L793 889H573L358 -121Q281 -492 -45 -492Z" />
<glyph unicode="g" glyph-name="g" horiz-adv-x="1108" d="M1186 1116L1151 950L977 909Q993 857 993 791Q993 596 872 483T543 369Q484 369 444 379Q360 352 360 301Q360 267 390 252T479 229L616 211Q779 190 853 127T928 -57Q928 -268 772 -380T326 -492Q118
-492 2 -417T-115 -209Q-115 -107 -47 -34T168 88Q94 135 94 221Q94 292 138 343T285 442Q220 491 189 554T158 707Q158 906 283 1022T625 1139Q708 1139 791 1116H1186ZM365 -6Q259 -20 205 -63T150 -172Q150 -287 344 -287Q495 -287 572 -242T649 -115Q649 -76
617 -55T479 -20L365 -6ZM614 948Q537 948 490 872T442 680Q442 561 545 561Q620 561 666 637T713 831Q713 948 614 948Z" />
<glyph unicode="h" glyph-name="h" horiz-adv-x="1237" d="M977 0H676L813 653Q829 721 829 772Q829 895 721 895Q629 895 554 781T436 463L338 0H37L367 1556H668Q629 1375 608 1278T522 969H530Q592 1046 668 1092T844 1139Q982 1139 1057 1056T1133 817Q1133
744 1110 637L977 0Z" />
<glyph unicode="i" glyph-name="i" horiz-adv-x="608" d="M322 1380Q322 1467 369 1511T504 1556Q577 1556 615 1525T653 1436Q653 1356 609 1307T473 1257Q322 1257 322 1380ZM338 0H37L274 1118H575L338 0Z" />
<glyph unicode="j" glyph-name="j" horiz-adv-x="608" d="M-90 -492Q-194 -492 -264 -467V-225Q-203 -246 -150 -246Q-13 -246 23 -76L276 1118H578L313 -121Q236 -492 -90 -492ZM324 1380Q324 1467 371 1511T506 1556Q579 1556 617 1525T655 1436Q655 1356 611
1307T475 1257Q324 1257 324 1380Z" />
<glyph unicode="k" glyph-name="k" horiz-adv-x="1163" d="M920 1118H1264L766 614L1051 0H715L532 420L412 348L338 0H37L367 1556H668L520 862Q512 821 491 745L463 643H467L920 1118Z" />
<glyph unicode="l" glyph-name="l" horiz-adv-x="608" d="M338 0H37L367 1556H668L338 0Z" />
<glyph unicode="m" glyph-name="m" horiz-adv-x="1853" d="M844 1139Q1063 1139 1106 911H1112Q1180 1021 1272 1080T1470 1139Q1606 1139 1677 1054T1749 817Q1749 741 1726 637L1593 0H1292L1430 653Q1446 721 1446 772Q1446 895 1348 895Q1256 895 1182 783T1063
465L967 0H666L803 653Q819 721 819 772Q819 895 721 895Q629 895 554 781T436 463L338 0H37L274 1118H504L483 911H489Q635 1139 844 1139Z" />
<glyph unicode="n" glyph-name="n" horiz-adv-x="1237" d="M977 0H676L813 653Q829 721 829 772Q829 895 721 895Q629 895 554 781T436 463L338 0H37L274 1118H504L483 911H489Q635 1139 844 1139Q982 1139 1057 1056T1133 817Q1133 744 1110 637L977 0Z" />
<glyph unicode="o" glyph-name="o" horiz-adv-x="1198" d="M805 696Q805 893 662 893Q587 893 528 832T431 653T393 410Q393 225 543 225Q618 225 678 286T771 457T805 696ZM1108 696Q1108 485 1038 322T834 70T518 -20Q323 -20 207 97T90 410Q90 623 161 789T368
1047T684 1139Q880 1139 994 1021T1108 696Z" />
<glyph unicode="p" glyph-name="p" d="M813 1139Q959 1139 1043 1032T1128 731Q1128 540 1060 364T872 84T610 -20Q527 -20 467 17T356 143H348Q336 -16 305 -152L233 -492H-68L274 1118H504L487 948H496Q634 1139 813 1139ZM692 895Q624 895 561 828T459 648T420
399Q420 319 457 271T559 223Q626 223 687 292T785 481T823 719Q823 895 692 895Z" />
<glyph unicode="q" glyph-name="q" horiz-adv-x="1217" d="M391 -20Q303 -20 235 27T129 166T90 385Q90 583 162 762T351 1040T608 1139Q694 1139 760 1102T885 975H893L950 1118H1182L840 -492H539Q586 -274 612 -155T696 150H688Q616 56 545 18T391 -20ZM535
223Q599 223 662 293T762 474T799 719Q799 799 762 847T659 895Q591 895 530 823T432 633T395 399Q395 311 431 267T535 223Z" />
<glyph unicode="r" glyph-name="r" horiz-adv-x="862" d="M842 1139Q901 1139 938 1128L872 838Q827 854 772 854Q656 854 569 763T444 500L338 0H37L274 1118H504L483 911H489Q636 1139 842 1139Z" />
<glyph unicode="s" glyph-name="s" horiz-adv-x="969" d="M829 369Q829 181 705 81T358 -20Q251 -20 172 -5T23 45V293Q180 203 342 203Q422 203 473 235T524 324Q524 367 487 401T356 487Q235 555 187 622T139 782Q139 952 249 1045T565 1139Q766 1139 928 1044L829
829Q689 913 571 913Q514 913 479 888T444 819Q444 780 476 751T596 676Q719 613 774 539T829 369Z" />
<glyph unicode="t" glyph-name="t" horiz-adv-x="840" d="M514 223Q579 223 676 258V33Q565 -20 410 -20Q260 -20 190 43T119 238Q119 288 131 350L246 889H94L123 1036L319 1120L451 1356H645L596 1118H879L829 889H547L432 350Q426 320 426 297Q426 223 514 223Z" />
<glyph unicode="u" glyph-name="u" horiz-adv-x="1237" d="M262 1118H563L426 465Q410 397 410 346Q410 223 518 223Q610 223 685 337T803 655L901 1118H1202L965 0H735L756 207H750Q605 -20 395 -20Q257 -20 184 62T111 301Q111 394 135 514L262 1118Z" />
<glyph unicode="v" glyph-name="v" horiz-adv-x="1049" d="M455 301Q510 454 547 524L844 1118H1167L563 0H240L102 1118H397L442 532Q449 399 449 301H455Z" />
<glyph unicode="w" glyph-name="w" horiz-adv-x="1614" d="M856 860Q794 682 733 541L500 0H176L125 1118H406L410 623L406 456L399 285H403Q409 305 417 326T468 463T514 582L745 1118H1073V582Q1073 440 1063 285H1069L1097 365Q1170 573 1192 623L1411 1118H1718L1188
0H858L852 520Q852 675 862 860H856Z" />
<glyph unicode="x" glyph-name="x" horiz-adv-x="1087" d="M379 573L154 1118H475L590 784L834 1118H1188L721 557L965 0H639L514 342L250 0H-100L379 573Z" />
<glyph unicode="y" glyph-name="y" horiz-adv-x="1063" d="M102 1118H397L453 600Q467 478 467 307H473Q493 358 517 426T582 580L842 1118H1169L489 -160Q312 -492 6 -492Q-84 -492 -141 -473V-233Q-73 -246 -25 -246Q59 -246 122 -198T240 -49L266 0L102 1118Z" />
<glyph unicode="z" glyph-name="z" horiz-adv-x="932" d="M748 0H-47L-12 180L563 885H166L217 1118H967L924 918L358 233H797L748 0Z" />
<glyph unicode="{" glyph-name="braceleft" horiz-adv-x="727" d="M201 319Q201 459 -8 459L37 688Q159 688 229 729T322 868L383 1153Q421 1323 514 1392T784 1462H868L819 1237Q729 1235 689 1203T633 1096L567 799Q522 592 291 563V555Q376 529 417 473T459
338Q459 294 444 225L408 47Q401 19 401 -4Q401 -58 434 -78T526 -98V-324H473Q306 -324 220 -261T133 -76Q133 -19 147 49L186 233Q201 302 201 319Z" />
<glyph unicode="|" glyph-name="bar" horiz-adv-x="1128" d="M455 1550H674V-465H455V1550Z" />
<glyph unicode="}" glyph-name="braceright" horiz-adv-x="727" d="M256 1462Q596 1462 596 1214Q596 1158 582 1090L543 905Q528 836 528 819Q528 680 737 680L692 451Q570 451 500 409T408 270L346 -14Q309 -184 216 -254T-55 -324H-100V-98Q-7 -95 37 -63T96
43L162 340Q187 451 257 506T438 575V584Q270 635 270 801Q270 844 285 913L322 1092Q328 1122 328 1143Q328 1197 292 1217T182 1237L223 1462H256Z" />
<glyph unicode="~" glyph-name="asciitilde" horiz-adv-x="1128" d="M342 672Q288 672 226 639T109 551V782Q210 891 365 891Q429 891 482 877T621 827Q685 800 732 786T827 772Q878 772 939 802T1061 893V662Q958 553 805 553Q746 553 696 564T549 616Q460 654
422 663T342 672Z" />
<glyph unicode="&#xa0;" glyph-name="nbspace" horiz-adv-x="532" />
<glyph unicode="&#xa1;" glyph-name="exclamdown" horiz-adv-x="586" d="M182 606H424L266 -371H-74L182 606ZM549 977Q549 885 494 832T344 778Q276 778 236 816T195 924Q195 1009 249 1063T393 1118Q466 1118 507 1081T549 977Z" />
<glyph unicode="&#xa2;" glyph-name="cent" horiz-adv-x="1128" d="M575 -20H387L436 190Q302 226 233 326T164 584Q164 777 226 939T404 1201T672 1325L705 1483H893L858 1325Q976 1311 1083 1260L991 1030Q938 1053 886 1070T768 1087Q635 1087 552 944T469
608Q469 512 514 464T641 416Q716 416 781 439T915 498V252Q779 181 616 172L575 -20Z" />
<glyph unicode="&#xa3;" glyph-name="sterling" horiz-adv-x="1128" d="M872 1485Q1067 1485 1241 1399L1128 1167Q987 1235 891 1235Q816 1235 768 1196T700 1063L653 834H952L907 614H608L590 530Q548 335 381 260H1036L981 0H-12L37 246Q233 294 281 510L303
614H111L156 834H348L397 1081Q438 1278 559 1381T872 1485Z" />
<glyph unicode="&#xa4;" glyph-name="currency" horiz-adv-x="1128" d="M190 723Q190 825 244 920L115 1047L262 1194L389 1067Q480 1120 586 1120Q691 1120 782 1065L909 1194L1059 1051L930 922Q983 833 983 723Q983 616 930 524L1055 399L909 254L782 379Q687
328 586 328Q471 328 387 379L262 256L117 401L244 526Q190 619 190 723ZM397 723Q397 646 451 591T586 535Q667 535 722 590T778 723Q778 803 722 858T586 913Q508 913 453 857T397 723Z" />
<glyph unicode="&#xa5;" glyph-name="yen" horiz-adv-x="1128" d="M608 872L979 1462H1290L784 715H987L948 537H696L668 399H920L883 221H631L584 0H293L340 221H88L125 399H377L406 537H154L193 715H389L197 1462H494L608 872Z" />
<glyph unicode="&#xa6;" glyph-name="brokenbar" horiz-adv-x="1128" d="M455 1550H674V735H455V1550ZM455 350H674V-465H455V350Z" />
<glyph unicode="&#xa7;" glyph-name="section" horiz-adv-x="995" d="M150 760Q150 849 197 923T352 1065Q310 1099 282 1149T254 1257Q254 1406 371 1491T684 1577Q856 1577 1028 1489L946 1296Q799 1380 664 1380Q520 1380 520 1274Q520 1231 560 1198T688 1126Q930
1020 930 823Q930 635 737 520Q775 485 801 435T827 326Q827 165 701 73T356 -20Q152 -20 20 55V279Q192 174 365 174Q464 174 509 209T555 301Q555 340 522 373T395 453Q278 510 214 584T150 760ZM506 967Q455 942 424 897T393 797Q393 743 436 701T580 612Q629
643 655 690T682 786Q682 895 506 967Z" />
<glyph unicode="&#xa8;" glyph-name="dieresis" horiz-adv-x="1135" d="M397 1382Q397 1460 439 1500T559 1540Q692 1540 692 1432Q692 1359 653 1316T532 1272Q397 1272 397 1382ZM799 1382Q799 1460 841 1500T961 1540Q1026 1540 1060 1512T1094 1432Q1094 1359
1055 1316T934 1272Q799 1272 799 1382Z" />
<glyph unicode="&#xa9;" glyph-name="copyright" horiz-adv-x="1704" d="M932 1010Q821 1010 769 937T717 723Q717 589 772 520T932 451Q975 451 1040 466T1165 510V319Q1034 262 903 262Q707 262 596 384T485 721Q485 946 602 1072T928 1198Q1070 1198 1212 1126L1137
952Q1023 1010 932 1010ZM125 731Q125 931 225 1106T500 1382T877 1483Q1076 1483 1250 1384T1526 1109T1628 731Q1628 532 1530 358T1257 82T877 -20Q670 -20 495 83T223 360T125 731ZM266 731Q266 567 347 426T571 203T877 121Q1044 121 1185 204T1406 427T1487
731Q1487 894 1407 1034T1185 1258T877 1341Q713 1341 571 1259T347 1035T266 731Z" />
<glyph unicode="&#xaa;" glyph-name="ordfeminine" horiz-adv-x="772" d="M369 752Q266 752 209 822T152 1020Q152 1137 198 1248T321 1419T498 1479Q618 1479 678 1376H684L723 1466H877L719 764H565L573 856H571Q491 752 369 752ZM442 903Q487 903 526 944T591
1064T618 1219Q618 1325 530 1325Q457 1325 407 1229T356 1014Q356 903 442 903Z" />
<glyph unicode="&#xab;" glyph-name="guillemotleft" horiz-adv-x="1151" d="M72 569L473 1032L664 877L385 543L520 193L274 90L72 551V569ZM559 569L961 1032L1151 877L872 543L1008 193L762 90L559 551V569Z" />
<glyph unicode="&#xac;" glyph-name="logicalnot" horiz-adv-x="1128" d="M1061 248H842V612H109V831H1061V248Z" />
<glyph unicode="&#xad;" glyph-name="uni00AD" horiz-adv-x="659" d="M41 424L94 674H618L565 424H41Z" />
<glyph unicode="&#xae;" glyph-name="registered" horiz-adv-x="1704" d="M1237 899Q1237 813 1193 750T1063 653L1260 293H1006L868 590H801V293H571V1167H879Q1052 1167 1144 1100T1237 899ZM801 758H852Q924 758 965 789T1006 881Q1006 940 971 969T854 999H801V758ZM125
731Q125 931 225 1106T500 1382T877 1483Q1076 1483 1250 1384T1526 1109T1628 731Q1628 532 1530 358T1257 82T877 -20Q670 -20 495 83T223 360T125 731ZM266 731Q266 567 347 426T571 203T877 121Q1044 121 1185 204T1406 427T1487 731Q1487 894 1407 1034T1185
1258T877 1341Q713 1341 571 1259T347 1035T266 731Z" />
<glyph unicode="&#xaf;" glyph-name="overscore" horiz-adv-x="1024" d="M1030 1556H-6L39 1757H1075L1030 1556Z" />
<glyph unicode="&#xb0;" glyph-name="degree" horiz-adv-x="877" d="M164 1137Q164 1230 210 1310T338 1437T510 1483Q603 1483 683 1436T810 1309T856 1137Q856 1044 810 964T684 839T510 793Q417 793 337 838T211 963T164 1137ZM354 1137Q354 1074 399 1029T510
983Q576 983 621 1029T666 1137Q666 1200 621 1247T510 1294Q445 1294 400 1247T354 1137Z" />
<glyph unicode="&#xb1;" glyph-name="plusminus" horiz-adv-x="1128" d="M475 674H109V893H475V1262H694V893H1061V674H694V309H475V674ZM109 0V219H1061V0H109Z" />
<glyph unicode="&#xb2;" glyph-name="twosuperior" horiz-adv-x="776" d="M707 586H59L94 752L367 971Q478 1062 508 1093T552 1152T567 1208Q567 1250 542 1270T481 1290Q395 1290 293 1208L193 1366Q267 1423 349 1453T541 1483Q664 1483 737 1420T811 1260Q811
1190 789 1137T719 1034T530 881L401 786H748L707 586Z" />
<glyph unicode="&#xb3;" glyph-name="threesuperior" horiz-adv-x="776" d="M813 1270Q813 1183 762 1125T596 1036V1032Q750 999 750 856Q750 725 643 647T358 569Q283 569 213 584T92 625V817Q217 745 346 745Q422 745 471 775T520 864Q520 901 494 926T406
952H279L313 1112H403Q487 1112 535 1140T584 1225Q584 1265 558 1285T487 1305Q401 1305 299 1239L217 1389Q359 1481 530 1481Q660 1481 736 1426T813 1270Z" />
<glyph unicode="&#xb4;" glyph-name="acute" horiz-adv-x="1135" d="M483 1266Q562 1354 705 1569H1040V1552Q994 1496 886 1400T692 1241H483V1266Z" />
<glyph unicode="&#xb5;" glyph-name="mu" horiz-adv-x="1249" d="M424 348Q424 288 455 256T535 223Q625 223 697 329T815 649L913 1118H1214L977 0H748L766 176H760Q643 -20 494 -20Q443 -20 405 -1T346 47H340Q332 -19 319 -92T236 -492H-68L274 1118H575L440
473Q424 403 424 348Z" />
<glyph unicode="&#xb6;" glyph-name="paragraph" horiz-adv-x="1341" d="M1202 -260H1040V1356H874V-260H713V559Q651 541 567 541Q351 541 249 666T147 1042Q147 1298 254 1427T598 1556H1202V-260Z" />
<glyph unicode="&#xb7;" glyph-name="middot" horiz-adv-x="584" d="M131 695Q131 785 184 839T335 893Q403 893 444 855T485 748Q485 661 430 607T286 553Q213 553 172 590T131 695Z" />
<glyph unicode="&#xb8;" glyph-name="cedilla" horiz-adv-x="420" d="M262 -250Q262 -366 179 -429T-55 -492Q-141 -492 -207 -469V-301Q-144 -324 -82 -324Q20 -324 20 -242Q20 -208 -11 -186T-121 -154L-25 0H160L121 -72Q262 -121 262 -250Z" />
<glyph unicode="&#xb9;" glyph-name="onesuperior" horiz-adv-x="776" d="M528 1462H735L549 586H303L387 983Q411 1092 442 1190Q426 1175 362 1130L231 1049L129 1214L528 1462Z" />
<glyph unicode="&#xba;" glyph-name="ordmasculine" horiz-adv-x="754" d="M809 1194Q809 1066 761 962T628 805T432 752Q298 752 230 827T162 1038Q162 1235 266 1357T543 1479Q672 1479 740 1406T809 1194ZM522 1315Q458 1315 415 1226T371 1026Q371 915 451
915Q514 915 556 1000T598 1208Q598 1315 522 1315Z" />
<glyph unicode="&#xbb;" glyph-name="guillemotright" horiz-adv-x="1151" d="M1079 535L678 72L487 227L766 561L631 911L877 1014L1079 553V535ZM592 535L190 72L0 227L279 561L143 911L389 1014L592 553V535Z" />
<glyph unicode="&#xbc;" glyph-name="onequarter" horiz-adv-x="1804" d="M1500 1462L416 0H177L1264 1462H1500ZM752 1462H959L773 586H527L611 983Q635 1092 666 1190Q650 1175 586 1130L455 1049L353 1214L752 1462ZM1573 152H1454L1422 1H1184L1217 152H844L875
326L1350 883H1610L1489 320H1608L1573 152ZM1252 320L1310 551L1332 625Q1319 605 1289 567T1078 320H1252Z" />
<glyph unicode="&#xbd;" glyph-name="onehalf" horiz-adv-x="1804" d="M1588 1H940L975 167L1248 386Q1359 477 1389 508T1433 567T1448 623Q1448 665 1423 685T1362 705Q1276 705 1174 623L1074 781Q1148 838 1230 868T1422 898Q1545 898 1618 835T1692 675Q1692
605 1670 552T1600 449T1411 296L1282 201H1629L1588 1ZM752 1462H959L773 586H527L611 983Q635 1092 666 1190Q650 1175 586 1130L455 1049L353 1214L752 1462ZM1500 1462L416 0H177L1264 1462H1500Z" />
<glyph unicode="&#xbe;" glyph-name="threequarters" horiz-adv-x="1804" d="M1633 1462L549 0H310L1397 1462H1633ZM1634 152H1515L1483 1H1245L1278 152H905L936 326L1411 883H1671L1550 320H1669L1634 152ZM1313 320L1371 551L1393 625Q1380 605 1350 567T1139
320H1313ZM854 1270Q854 1183 803 1125T637 1036V1032Q791 999 791 856Q791 725 684 647T399 569Q324 569 254 584T133 625V817Q258 745 387 745Q463 745 512 775T561 864Q561 901 535 926T447 952H320L354 1112H444Q528 1112 576 1140T625 1225Q625 1265 599 1285T528
1305Q442 1305 340 1239L258 1389Q400 1481 571 1481Q701 1481 777 1426T854 1270Z" />
<glyph unicode="&#xbf;" glyph-name="questiondown" horiz-adv-x="940" d="M678 606L664 528Q645 423 588 348T418 197Q296 114 262 71T227 -27Q227 -145 360 -145Q410 -145 466 -129T668 -45L760 -266Q539 -391 315 -391Q138 -391 35 -304T-68 -59Q-68 23 -40
89T44 213T233 360Q326 422 361 466T412 573L420 606H678ZM772 977Q772 885 717 832T567 778Q499 778 459 816T418 924Q418 1010 472 1064T616 1118Q689 1118 730 1081T772 977Z" />
<glyph unicode="&#xc0;" glyph-name="Agrave" horiz-adv-x="1286" d="M842 348H369L197 0H-123L643 1468H1016L1163 0H866L842 348ZM827 608L801 958Q791 1089 791 1211V1247Q747 1127 682 993L494 608H827ZM965 1579H781Q710 1648 643 1732T539 1886V1907H850Q886
1759 965 1604V1579Z" />
<glyph unicode="&#xc1;" glyph-name="Aacute" horiz-adv-x="1286" d="M842 348H369L197 0H-123L643 1468H1016L1163 0H866L842 348ZM827 608L801 958Q791 1089 791 1211V1247Q747 1127 682 993L494 608H827ZM735 1604Q814 1692 957 1907H1292V1890Q1246 1834 1138
1738T944 1579H735V1604Z" />
<glyph unicode="&#xc2;" glyph-name="Acircumflex" horiz-adv-x="1286" d="M842 348H369L197 0H-123L643 1468H1016L1163 0H866L842 348ZM827 608L801 958Q791 1089 791 1211V1247Q747 1127 682 993L494 608H827ZM1235 1579H1037Q974 1632 875 1747Q770 1659 643
1579H426V1604Q489 1661 579 1751T721 1907H1059Q1081 1853 1133 1765T1235 1604V1579Z" />
<glyph unicode="&#xc3;" glyph-name="Atilde" horiz-adv-x="1286" d="M842 348H369L197 0H-123L643 1468H1016L1163 0H866L842 348ZM827 608L801 958Q791 1089 791 1211V1247Q747 1127 682 993L494 608H827ZM999 1579Q950 1579 913 1595T843 1631T782 1667T719
1684Q688 1684 664 1656T625 1577H448Q507 1886 729 1886Q778 1886 816 1870T888 1834T950 1798T1010 1782Q1044 1782 1068 1807T1114 1888H1286Q1220 1579 999 1579Z" />
<glyph unicode="&#xc4;" glyph-name="Adieresis" horiz-adv-x="1286" d="M842 348H369L197 0H-123L643 1468H1016L1163 0H866L842 348ZM827 608L801 958Q791 1089 791 1211V1247Q747 1127 682 993L494 608H827ZM516 1720Q516 1798 558 1838T678 1878Q811 1878
811 1770Q811 1697 772 1654T651 1610Q516 1610 516 1720ZM918 1720Q918 1798 960 1838T1080 1878Q1145 1878 1179 1850T1213 1770Q1213 1697 1174 1654T1053 1610Q918 1610 918 1720Z" />
<glyph unicode="&#xc5;" glyph-name="Aring" horiz-adv-x="1286" d="M842 348H369L197 0H-123L643 1468H1016L1163 0H866L842 348ZM827 608L801 958Q791 1089 791 1211V1247Q747 1127 682 993L494 608H827ZM1087 1567Q1087 1460 1017 1394T833 1327Q723 1327 654
1390T585 1565Q585 1674 653 1738T833 1802Q943 1802 1015 1737T1087 1567ZM930 1565Q930 1610 903 1635T833 1661Q791 1661 764 1636T737 1565Q737 1520 761 1494T833 1468Q875 1468 902 1494T930 1565Z" />
<glyph unicode="&#xc6;" glyph-name="AE" horiz-adv-x="1833" d="M1593 0H776L850 348H424L205 0H-123L799 1462H1903L1849 1208H1337L1270 887H1747L1692 633H1214L1135 256H1647L1593 0ZM905 608L1032 1208H952L588 608H905Z" />
<glyph unicode="&#xc7;" glyph-name="Ccedilla" horiz-adv-x="1253" d="M905 1227Q773 1227 668 1146T498 908T434 569Q434 402 502 321T721 240Q867 240 1059 317V57Q860 -20 659 -20Q405 -20 264 129T123 553Q123 815 227 1035T505 1370T905 1485Q1030 1485
1127 1463T1335 1380L1217 1130Q1111 1189 1042 1208T905 1227ZM825 -250Q825 -366 742 -429T508 -492Q422 -492 356 -469V-301Q419 -324 481 -324Q583 -324 583 -242Q583 -208 552 -186T442 -154L538 0H723L684 -72Q825 -121 825 -250Z" />
<glyph unicode="&#xc8;" glyph-name="Egrave" horiz-adv-x="1110" d="M870 0H53L362 1462H1180L1126 1208H614L547 887H1024L969 633H492L412 256H924L870 0ZM906 1579H722Q651 1648 584 1732T480 1886V1907H791Q827 1759 906 1604V1579Z" />
<glyph unicode="&#xc9;" glyph-name="Eacute" horiz-adv-x="1110" d="M870 0H53L362 1462H1180L1126 1208H614L547 887H1024L969 633H492L412 256H924L870 0ZM608 1604Q687 1692 830 1907H1165V1890Q1119 1834 1011 1738T817 1579H608V1604Z" />
<glyph unicode="&#xca;" glyph-name="Ecircumflex" horiz-adv-x="1110" d="M870 0H53L362 1462H1180L1126 1208H614L547 887H1024L969 633H492L412 256H924L870 0ZM1177 1579H979Q916 1632 817 1747Q712 1659 585 1579H368V1604Q431 1661 521 1751T663 1907H1001Q1023
1853 1075 1765T1177 1604V1579Z" />
<glyph unicode="&#xcb;" glyph-name="Edieresis" horiz-adv-x="1110" d="M870 0H53L362 1462H1180L1126 1208H614L547 887H1024L969 633H492L412 256H924L870 0ZM438 1720Q438 1798 480 1838T600 1878Q733 1878 733 1770Q733 1697 694 1654T573 1610Q438 1610
438 1720ZM840 1720Q840 1798 882 1838T1002 1878Q1067 1878 1101 1850T1135 1770Q1135 1697 1096 1654T975 1610Q840 1610 840 1720Z" />
<glyph unicode="&#xcc;" glyph-name="Igrave" horiz-adv-x="659" d="M53 0L365 1462H670L358 0H53ZM667 1579H483Q412 1648 345 1732T241 1886V1907H552Q588 1759 667 1604V1579Z" />
<glyph unicode="&#xcd;" glyph-name="Iacute" horiz-adv-x="659" d="M53 0L365 1462H670L358 0H53ZM414 1604Q493 1692 636 1907H971V1890Q925 1834 817 1738T623 1579H414V1604Z" />
<glyph unicode="&#xce;" glyph-name="Icircumflex" horiz-adv-x="659" d="M53 0L365 1462H670L358 0H53ZM937 1579H739Q676 1632 577 1747Q472 1659 345 1579H128V1604Q191 1661 281 1751T423 1907H761Q783 1853 835 1765T937 1604V1579Z" />
<glyph unicode="&#xcf;" glyph-name="Idieresis" horiz-adv-x="659" d="M53 0L365 1462H670L358 0H53ZM222 1720Q222 1798 264 1838T384 1878Q517 1878 517 1770Q517 1697 478 1654T357 1610Q222 1610 222 1720ZM624 1720Q624 1798 666 1838T786 1878Q851 1878
885 1850T919 1770Q919 1697 880 1654T759 1610Q624 1610 624 1720Z" />
<glyph unicode="&#xd0;" glyph-name="Eth" horiz-adv-x="1386" d="M1323 909Q1323 629 1225 423T942 108T504 0H53L178 596H37L92 850H231L362 1462H758Q1028 1462 1175 1319T1323 909ZM518 256Q666 256 776 332T948 555T1010 893Q1010 1047 938 1127T729 1208H614L539
850H776L721 596H483L412 256H518Z" />
<glyph unicode="&#xd1;" glyph-name="Ntilde" horiz-adv-x="1546" d="M1247 0H905L549 1106H543L539 1074Q507 858 473 688L328 0H53L362 1462H719L1059 385H1063Q1075 461 1102 602T1282 1462H1556L1247 0ZM1114 1579Q1065 1579 1028 1595T958 1631T897 1667T834
1684Q803 1684 779 1656T740 1577H563Q622 1886 844 1886Q893 1886 931 1870T1003 1834T1065 1798T1125 1782Q1159 1782 1183 1807T1229 1888H1401Q1335 1579 1114 1579Z" />
<glyph unicode="&#xd2;" glyph-name="Ograve" horiz-adv-x="1495" d="M1432 938Q1432 655 1333 432T1062 94T666 -20Q410 -20 267 127T123 537Q123 802 222 1024T495 1366T897 1485Q1152 1485 1292 1341T1432 938ZM872 1227Q751 1227 650 1136T492 884T434 537Q434
390 500 315T688 240Q809 240 908 327T1064 573T1120 930Q1120 1072 1055 1149T872 1227ZM1053 1579H869Q798 1648 731 1732T627 1886V1907H938Q974 1759 1053 1604V1579Z" />
<glyph unicode="&#xd3;" glyph-name="Oacute" horiz-adv-x="1495" d="M1432 938Q1432 655 1333 432T1062 94T666 -20Q410 -20 267 127T123 537Q123 802 222 1024T495 1366T897 1485Q1152 1485 1292 1341T1432 938ZM872 1227Q751 1227 650 1136T492 884T434 537Q434
390 500 315T688 240Q809 240 908 327T1064 573T1120 930Q1120 1072 1055 1149T872 1227ZM753 1604Q832 1692 975 1907H1310V1890Q1264 1834 1156 1738T962 1579H753V1604Z" />
<glyph unicode="&#xd4;" glyph-name="Ocircumflex" horiz-adv-x="1495" d="M1432 938Q1432 655 1333 432T1062 94T666 -20Q410 -20 267 127T123 537Q123 802 222 1024T495 1366T897 1485Q1152 1485 1292 1341T1432 938ZM872 1227Q751 1227 650 1136T492 884T434
537Q434 390 500 315T688 240Q809 240 908 327T1064 573T1120 930Q1120 1072 1055 1149T872 1227ZM1308 1579H1110Q1047 1632 948 1747Q843 1659 716 1579H499V1604Q562 1661 652 1751T794 1907H1132Q1154 1853 1206 1765T1308 1604V1579Z" />
<glyph unicode="&#xd5;" glyph-name="Otilde" horiz-adv-x="1495" d="M1432 938Q1432 655 1333 432T1062 94T666 -20Q410 -20 267 127T123 537Q123 802 222 1024T495 1366T897 1485Q1152 1485 1292 1341T1432 938ZM872 1227Q751 1227 650 1136T492 884T434 537Q434
390 500 315T688 240Q809 240 908 327T1064 573T1120 930Q1120 1072 1055 1149T872 1227ZM1071 1579Q1022 1579 985 1595T915 1631T854 1667T791 1684Q760 1684 736 1656T697 1577H520Q579 1886 801 1886Q850 1886 888 1870T960 1834T1022 1798T1082 1782Q1116
1782 1140 1807T1186 1888H1358Q1292 1579 1071 1579Z" />
<glyph unicode="&#xd6;" glyph-name="Odieresis" horiz-adv-x="1495" d="M1432 938Q1432 655 1333 432T1062 94T666 -20Q410 -20 267 127T123 537Q123 802 222 1024T495 1366T897 1485Q1152 1485 1292 1341T1432 938ZM872 1227Q751 1227 650 1136T492 884T434
537Q434 390 500 315T688 240Q809 240 908 327T1064 573T1120 930Q1120 1072 1055 1149T872 1227ZM585 1720Q585 1798 627 1838T747 1878Q880 1878 880 1770Q880 1697 841 1654T720 1610Q585 1610 585 1720ZM987 1720Q987 1798 1029 1838T1149 1878Q1214 1878 1248
1850T1282 1770Q1282 1697 1243 1654T1122 1610Q987 1610 987 1720Z" />
<glyph unicode="&#xd7;" glyph-name="multiply" horiz-adv-x="1128" d="M428 723L129 1024L281 1178L582 879L887 1178L1040 1028L735 723L1036 420L887 268L582 569L281 270L131 422L428 723Z" />
<glyph unicode="&#xd8;" glyph-name="Oslash" horiz-adv-x="1495" d="M1432 938Q1432 655 1333 432T1062 94T666 -20Q486 -20 362 51L254 -86L100 29L221 180Q123 318 123 537Q123 802 222 1024T495 1366T897 1485Q1079 1485 1202 1409L1307 1540L1458 1423L1341
1278Q1432 1144 1432 938ZM870 1233Q744 1233 641 1142T481 889T424 537Q424 505 432 436L1028 1190Q959 1233 870 1233ZM1133 930L1128 1010L539 270Q598 233 692 233Q816 233 918 322T1076 569T1133 930Z" />
<glyph unicode="&#xd9;" glyph-name="Ugrave" horiz-adv-x="1415" d="M1434 1462L1233 516Q1176 250 1015 115T596 -20Q384 -20 263 93T141 401Q141 473 156 539L352 1462H657L463 543Q446 469 446 418Q446 240 635 240Q758 240 830 316T934 545L1128 1462H1434ZM1002
1579H818Q747 1648 680 1732T576 1886V1907H887Q923 1759 1002 1604V1579Z" />
<glyph unicode="&#xda;" glyph-name="Uacute" horiz-adv-x="1415" d="M1434 1462L1233 516Q1176 250 1015 115T596 -20Q384 -20 263 93T141 401Q141 473 156 539L352 1462H657L463 543Q446 469 446 418Q446 240 635 240Q758 240 830 316T934 545L1128 1462H1434ZM757
1604Q836 1692 979 1907H1314V1890Q1268 1834 1160 1738T966 1579H757V1604Z" />
<glyph unicode="&#xdb;" glyph-name="Ucircumflex" horiz-adv-x="1415" d="M1434 1462L1233 516Q1176 250 1015 115T596 -20Q384 -20 263 93T141 401Q141 473 156 539L352 1462H657L463 543Q446 469 446 418Q446 240 635 240Q758 240 830 316T934 545L1128 1462H1434ZM1284
1579H1086Q1023 1632 924 1747Q819 1659 692 1579H475V1604Q538 1661 628 1751T770 1907H1108Q1130 1853 1182 1765T1284 1604V1579Z" />
<glyph unicode="&#xdc;" glyph-name="Udieresis" horiz-adv-x="1415" d="M1434 1462L1233 516Q1176 250 1015 115T596 -20Q384 -20 263 93T141 401Q141 473 156 539L352 1462H657L463 543Q446 469 446 418Q446 240 635 240Q758 240 830 316T934 545L1128 1462H1434ZM565
1720Q565 1798 607 1838T727 1878Q860 1878 860 1770Q860 1697 821 1654T700 1610Q565 1610 565 1720ZM967 1720Q967 1798 1009 1838T1129 1878Q1194 1878 1228 1850T1262 1770Q1262 1697 1223 1654T1102 1610Q967 1610 967 1720Z" />
<glyph unicode="&#xdd;" glyph-name="Yacute" horiz-adv-x="1155" d="M627 870L1001 1462H1343L725 559L606 0H303L422 559L186 1462H498L627 870ZM606 1604Q685 1692 828 1907H1163V1890Q1117 1834 1009 1738T815 1579H606V1604Z" />
<glyph unicode="&#xde;" glyph-name="Thorn" horiz-adv-x="1188" d="M1143 807Q1143 564 973 429T506 293H420L358 0H53L362 1462H668L618 1233H653Q895 1233 1019 1127T1143 807ZM475 547H530Q669 547 752 613T836 799Q836 979 641 979H567L475 547Z" />
<glyph unicode="&#xdf;" glyph-name="germandbls" horiz-adv-x="1350" d="M846 1567Q1054 1567 1177 1477T1300 1237Q1300 1123 1251 1045T1073 893Q1000 851 977 825T954 770Q954 747 976 721T1055 651Q1162 568 1199 501T1237 350Q1237 180 1114 80T776 -20Q589
-20 479 41V281Q607 203 737 203Q838 203 885 236T932 322Q932 362 906 397T797 494Q703 566 668 624T633 750Q633 834 678 895T840 1022Q906 1059 944 1098T983 1194Q983 1256 944 1292T819 1329Q723 1329 663 1278T578 1106L324 -113Q281 -311 177 -401T-100
-492Q-190 -492 -260 -467V-225Q-199 -246 -145 -246Q-12 -246 25 -68L279 1139Q326 1363 461 1465T846 1567Z" />
<glyph unicode="&#xe0;" glyph-name="agrave" horiz-adv-x="1217" d="M406 -20Q259 -20 175 86T90 385Q90 583 162 762T351 1040T608 1139Q705 1139 775 1097T885 975H893L950 1118H1182L944 0H715L729 145H725Q591 -20 406 -20ZM524 223Q593 223 657 290T760
471T799 731Q799 802 761 848T659 895Q591 895 530 823T432 633T395 399Q395 311 428 267T524 223ZM1125 1241H941Q870 1310 803 1394T699 1548V1569H1010Q1046 1421 1125 1266V1241Z" />
<glyph unicode="&#xe1;" glyph-name="aacute" horiz-adv-x="1217" d="M406 -20Q259 -20 175 86T90 385Q90 583 162 762T351 1040T608 1139Q705 1139 775 1097T885 975H893L950 1118H1182L944 0H715L729 145H725Q591 -20 406 -20ZM524 223Q593 223 657 290T760
471T799 731Q799 802 761 848T659 895Q591 895 530 823T432 633T395 399Q395 311 428 267T524 223ZM598 1266Q677 1354 820 1569H1155V1552Q1109 1496 1001 1400T807 1241H598V1266Z" />
<glyph unicode="&#xe2;" glyph-name="acircumflex" horiz-adv-x="1217" d="M406 -20Q259 -20 175 86T90 385Q90 583 162 762T351 1040T608 1139Q705 1139 775 1097T885 975H893L950 1118H1182L944 0H715L729 145H725Q591 -20 406 -20ZM524 223Q593 223 657 290T760
471T799 731Q799 802 761 848T659 895Q591 895 530 823T432 633T395 399Q395 311 428 267T524 223ZM1120 1496H922Q859 1549 760 1664Q655 1576 528 1496H311V1521Q374 1578 464 1668T606 1824H944Q966 1770 1018 1682T1120 1521V1496Z" />
<glyph unicode="&#xe3;" glyph-name="atilde" horiz-adv-x="1217" d="M406 -20Q259 -20 175 86T90 385Q90 583 162 762T351 1040T608 1139Q705 1139 775 1097T885 975H893L950 1118H1182L944 0H715L729 145H725Q591 -20 406 -20ZM524 223Q593 223 657 290T760
471T799 731Q799 802 761 848T659 895Q591 895 530 823T432 633T395 399Q395 311 428 267T524 223ZM884 1241Q835 1241 798 1257T728 1293T667 1329T604 1346Q573 1346 549 1318T510 1239H333Q392 1548 614 1548Q663 1548 701 1532T773 1496T835 1460T895 1444Q929
1444 953 1469T999 1550H1171Q1105 1241 884 1241Z" />
<glyph unicode="&#xe4;" glyph-name="adieresis" horiz-adv-x="1217" d="M406 -20Q259 -20 175 86T90 385Q90 583 162 762T351 1040T608 1139Q705 1139 775 1097T885 975H893L950 1118H1182L944 0H715L729 145H725Q591 -20 406 -20ZM524 223Q593 223 657 290T760
471T799 731Q799 802 761 848T659 895Q591 895 530 823T432 633T395 399Q395 311 428 267T524 223ZM397 1382Q397 1460 439 1500T559 1540Q692 1540 692 1432Q692 1359 653 1316T532 1272Q397 1272 397 1382ZM799 1382Q799 1460 841 1500T961 1540Q1026 1540 1060
1512T1094 1432Q1094 1359 1055 1316T934 1272Q799 1272 799 1382Z" />
<glyph unicode="&#xe5;" glyph-name="aring" horiz-adv-x="1217" d="M406 -20Q259 -20 175 86T90 385Q90 583 162 762T351 1040T608 1139Q705 1139 775 1097T885 975H893L950 1118H1182L944 0H715L729 145H725Q591 -20 406 -20ZM524 223Q593 223 657 290T760 471T799
731Q799 802 761 848T659 895Q591 895 530 823T432 633T395 399Q395 311 428 267T524 223ZM1279 1479Q1279 1372 1209 1306T1025 1239Q915 1239 846 1302T777 1477Q777 1586 845 1650T1025 1714Q1135 1714 1207 1649T1279 1479ZM1122 1477Q1122 1522 1095 1547T1025
1573Q983 1573 956 1548T929 1477Q929 1432 953 1406T1025 1380Q1067 1380 1094 1406T1122 1477Z" />
<glyph unicode="&#xe6;" glyph-name="ae" horiz-adv-x="1786" d="M1206 -20Q1097 -20 1027 7T909 94L893 0H705L719 145H713Q642 57 567 19T399 -20Q253 -20 172 89T90 385Q90 585 158 760T343 1037T602 1139Q698 1139 762 1101T877 975H883L940 1118H1128L1110
1028Q1154 1077 1230 1108T1399 1139Q1556 1139 1645 1056T1735 834Q1735 647 1568 546T1092 444H1040L1038 425V406Q1038 310 1093 259T1253 207Q1319 207 1405 230T1567 293V66Q1388 -20 1206 -20ZM518 223Q590 223 652 291T751 475T788 719Q788 799 755 847T653
895Q585 895 525 826T430 641T395 399Q395 315 427 269T518 223ZM1341 922Q1253 922 1175 842T1073 647H1118Q1273 647 1359 695T1446 827Q1446 922 1341 922Z" />
<glyph unicode="&#xe7;" glyph-name="ccedilla" horiz-adv-x="989" d="M506 -20Q305 -20 198 87T90 391Q90 603 164 776T374 1044T682 1139Q864 1139 1010 1067L918 838Q864 861 812 878T694 895Q609 895 541 831T434 656T395 416Q395 320 440 272T567 223Q643
223 708 246T842 305V59Q690 -20 506 -20ZM653 -250Q653 -366 570 -429T336 -492Q250 -492 184 -469V-301Q247 -324 309 -324Q411 -324 411 -242Q411 -208 380 -186T270 -154L366 0H551L512 -72Q653 -121 653 -250Z" />
<glyph unicode="&#xe8;" glyph-name="egrave" horiz-adv-x="1141" d="M696 922Q608 922 530 842T428 647H473Q628 647 714 695T801 827Q801 922 696 922ZM532 -20Q322 -20 206 93T90 412Q90 619 172 789T396 1049T715 1139Q892 1139 991 1058T1090 834Q1090 647
923 546T446 444H395L393 423V403Q393 312 444 260T592 207Q679 207 750 226T922 293V66Q750 -20 532 -20ZM1105 1241H921Q850 1310 783 1394T679 1548V1569H990Q1026 1421 1105 1266V1241Z" />
<glyph unicode="&#xe9;" glyph-name="eacute" horiz-adv-x="1141" d="M696 922Q608 922 530 842T428 647H473Q628 647 714 695T801 827Q801 922 696 922ZM532 -20Q322 -20 206 93T90 412Q90 619 172 789T396 1049T715 1139Q892 1139 991 1058T1090 834Q1090 647
923 546T446 444H395L393 423V403Q393 312 444 260T592 207Q679 207 750 226T922 293V66Q750 -20 532 -20ZM528 1266Q607 1354 750 1569H1085V1552Q1039 1496 931 1400T737 1241H528V1266Z" />
<glyph unicode="&#xea;" glyph-name="ecircumflex" horiz-adv-x="1141" d="M696 922Q608 922 530 842T428 647H473Q628 647 714 695T801 827Q801 922 696 922ZM532 -20Q322 -20 206 93T90 412Q90 619 172 789T396 1049T715 1139Q892 1139 991 1058T1090 834Q1090
647 923 546T446 444H395L393 423V403Q393 312 444 260T592 207Q679 207 750 226T922 293V66Q750 -20 532 -20ZM1357 1241H1159Q1096 1294 997 1409Q892 1321 765 1241H548V1266Q611 1323 701 1413T843 1569H1181Q1203 1515 1255 1427T1357 1266V1241Z" />
<glyph unicode="&#xeb;" glyph-name="edieresis" horiz-adv-x="1141" d="M696 922Q608 922 530 842T428 647H473Q628 647 714 695T801 827Q801 922 696 922ZM532 -20Q322 -20 206 93T90 412Q90 619 172 789T396 1049T715 1139Q892 1139 991 1058T1090 834Q1090
647 923 546T446 444H395L393 423V403Q393 312 444 260T592 207Q679 207 750 226T922 293V66Q750 -20 532 -20ZM621 1382Q621 1460 663 1500T783 1540Q916 1540 916 1432Q916 1359 877 1316T756 1272Q621 1272 621 1382ZM1023 1382Q1023 1460 1065 1500T1185 1540Q1250
1540 1284 1512T1318 1432Q1318 1359 1279 1316T1158 1272Q1023 1272 1023 1382Z" />
<glyph unicode="&#xec;" glyph-name="igrave" horiz-adv-x="608" d="M338 0H37L274 1118H575L338 0ZM579 1241H395Q324 1310 257 1394T153 1548V1569H464Q500 1421 579 1266V1241Z" />
<glyph unicode="&#xed;" glyph-name="iacute" horiz-adv-x="608" d="M338 0H37L274 1118H575L338 0ZM291 1266Q370 1354 513 1569H848V1552Q802 1496 694 1400T500 1241H291V1266Z" />
<glyph unicode="&#xee;" glyph-name="icircumflex" horiz-adv-x="608" d="M338 0H37L274 1118H575L338 0ZM845 1241H647Q584 1294 485 1409Q380 1321 253 1241H36V1266Q99 1323 189 1413T331 1569H669Q691 1515 743 1427T845 1266V1241Z" />
<glyph unicode="&#xef;" glyph-name="idieresis" horiz-adv-x="608" d="M338 0H37L274 1118H575L338 0ZM126 1382Q126 1460 168 1500T288 1540Q421 1540 421 1432Q421 1359 382 1316T261 1272Q126 1272 126 1382ZM528 1382Q528 1460 570 1500T690 1540Q755 1540
789 1512T823 1432Q823 1359 784 1316T663 1272Q528 1272 528 1382Z" />
<glyph unicode="&#xf0;" glyph-name="eth" horiz-adv-x="1182" d="M618 1309Q584 1343 494 1389L612 1575Q746 1514 844 1436L1081 1567L1157 1415L965 1309Q1046 1202 1078 1074T1110 795Q1110 546 1041 363T837 80T514 -20Q298 -20 185 90T72 406Q72 571 136
707T317 919T582 995Q665 995 733 964T848 870H854Q834 1083 737 1180L506 1049L418 1196L618 1309ZM528 205Q594 205 650 260T739 409T772 602Q772 679 734 724T625 770Q552 770 495 717T407 574T375 377Q375 296 414 251T528 205Z" />
<glyph unicode="&#xf1;" glyph-name="ntilde" horiz-adv-x="1237" d="M977 0H676L813 653Q829 721 829 772Q829 895 721 895Q629 895 554 781T436 463L338 0H37L274 1118H504L483 911H489Q635 1139 844 1139Q982 1139 1057 1056T1133 817Q1133 744 1110 637L977
0ZM909 1241Q860 1241 823 1257T753 1293T692 1329T629 1346Q598 1346 574 1318T535 1239H358Q417 1548 639 1548Q688 1548 726 1532T798 1496T860 1460T920 1444Q954 1444 978 1469T1024 1550H1196Q1130 1241 909 1241Z" />
<glyph unicode="&#xf2;" glyph-name="ograve" horiz-adv-x="1198" d="M805 696Q805 893 662 893Q587 893 528 832T431 653T393 410Q393 225 543 225Q618 225 678 286T771 457T805 696ZM1108 696Q1108 485 1038 322T834 70T518 -20Q323 -20 207 97T90 410Q90 623
161 789T368 1047T684 1139Q880 1139 994 1021T1108 696ZM1101 1241H917Q846 1310 779 1394T675 1548V1569H986Q1022 1421 1101 1266V1241Z" />
<glyph unicode="&#xf3;" glyph-name="oacute" horiz-adv-x="1198" d="M805 696Q805 893 662 893Q587 893 528 832T431 653T393 410Q393 225 543 225Q618 225 678 286T771 457T805 696ZM1108 696Q1108 485 1038 322T834 70T518 -20Q323 -20 207 97T90 410Q90 623
161 789T368 1047T684 1139Q880 1139 994 1021T1108 696ZM571 1266Q650 1354 793 1569H1128V1552Q1082 1496 974 1400T780 1241H571V1266Z" />
<glyph unicode="&#xf4;" glyph-name="ocircumflex" horiz-adv-x="1198" d="M805 696Q805 893 662 893Q587 893 528 832T431 653T393 410Q393 225 543 225Q618 225 678 286T771 457T805 696ZM1108 696Q1108 485 1038 322T834 70T518 -20Q323 -20 207 97T90 410Q90
623 161 789T368 1047T684 1139Q880 1139 994 1021T1108 696ZM1365 1241H1167Q1104 1294 1005 1409Q900 1321 773 1241H556V1266Q619 1323 709 1413T851 1569H1189Q1211 1515 1263 1427T1365 1266V1241Z" />
<glyph unicode="&#xf5;" glyph-name="otilde" horiz-adv-x="1198" d="M805 696Q805 893 662 893Q587 893 528 832T431 653T393 410Q393 225 543 225Q618 225 678 286T771 457T805 696ZM1108 696Q1108 485 1038 322T834 70T518 -20Q323 -20 207 97T90 410Q90 623
161 789T368 1047T684 1139Q880 1139 994 1021T1108 696ZM1121 1241Q1072 1241 1035 1257T965 1293T904 1329T841 1346Q810 1346 786 1318T747 1239H570Q629 1548 851 1548Q900 1548 938 1532T1010 1496T1072 1460T1132 1444Q1166 1444 1190 1469T1236 1550H1408Q1342
1241 1121 1241Z" />
<glyph unicode="&#xf6;" glyph-name="odieresis" horiz-adv-x="1198" d="M805 696Q805 893 662 893Q587 893 528 832T431 653T393 410Q393 225 543 225Q618 225 678 286T771 457T805 696ZM1108 696Q1108 485 1038 322T834 70T518 -20Q323 -20 207 97T90 410Q90
623 161 789T368 1047T684 1139Q880 1139 994 1021T1108 696ZM642 1382Q642 1460 684 1500T804 1540Q937 1540 937 1432Q937 1359 898 1316T777 1272Q642 1272 642 1382ZM1044 1382Q1044 1460 1086 1500T1206 1540Q1271 1540 1305 1512T1339 1432Q1339 1359 1300
1316T1179 1272Q1044 1272 1044 1382Z" />
<glyph unicode="&#xf7;" glyph-name="divide" horiz-adv-x="1128" d="M109 612V831H1061V612H109ZM444 373Q444 449 481 486T584 524Q650 524 686 485T723 373Q723 303 686 262T584 221Q519 221 482 260T444 373ZM444 1071Q444 1146 481 1184T584 1223Q651 1223
687 1183T723 1071Q723 1001 686 961T584 920Q519 920 482 959T444 1071Z" />
<glyph unicode="&#xf8;" glyph-name="oslash" horiz-adv-x="1198" d="M1108 696Q1108 485 1038 322T834 70T518 -20Q395 -20 293 33L184 -102L43 6L162 154Q90 261 90 410Q90 623 161 789T368 1047T684 1139Q815 1139 911 1083L981 1171L1126 1061L1042 956Q1108
849 1108 696ZM662 903Q581 903 518 841T420 671T385 438V426L750 879Q715 903 662 903ZM543 215Q657 215 736 348T815 666V682L457 238Q468 230 492 223T543 215Z" />
<glyph unicode="&#xf9;" glyph-name="ugrave" horiz-adv-x="1237" d="M262 1118H563L426 465Q410 397 410 346Q410 223 518 223Q610 223 685 337T803 655L901 1118H1202L965 0H735L756 207H750Q605 -20 395 -20Q257 -20 184 62T111 301Q111 394 135 514L262 1118ZM1101
1241H917Q846 1310 779 1394T675 1548V1569H986Q1022 1421 1101 1266V1241Z" />
<glyph unicode="&#xfa;" glyph-name="uacute" horiz-adv-x="1237" d="M262 1118H563L426 465Q410 397 410 346Q410 223 518 223Q610 223 685 337T803 655L901 1118H1202L965 0H735L756 207H750Q605 -20 395 -20Q257 -20 184 62T111 301Q111 394 135 514L262 1118ZM610
1266Q689 1354 832 1569H1167V1552Q1121 1496 1013 1400T819 1241H610V1266Z" />
<glyph unicode="&#xfb;" glyph-name="ucircumflex" horiz-adv-x="1237" d="M262 1118H563L426 465Q410 397 410 346Q410 223 518 223Q610 223 685 337T803 655L901 1118H1202L965 0H735L756 207H750Q605 -20 395 -20Q257 -20 184 62T111 301Q111 394 135 514L262
1118ZM1143 1241H945Q882 1294 783 1409Q678 1321 551 1241H334V1266Q397 1323 487 1413T629 1569H967Q989 1515 1041 1427T1143 1266V1241Z" />
<glyph unicode="&#xfc;" glyph-name="udieresis" horiz-adv-x="1237" d="M262 1118H563L426 465Q410 397 410 346Q410 223 518 223Q610 223 685 337T803 655L901 1118H1202L965 0H735L756 207H750Q605 -20 395 -20Q257 -20 184 62T111 301Q111 394 135 514L262
1118ZM411 1382Q411 1460 453 1500T573 1540Q706 1540 706 1432Q706 1359 667 1316T546 1272Q411 1272 411 1382ZM813 1382Q813 1460 855 1500T975 1540Q1040 1540 1074 1512T1108 1432Q1108 1359 1069 1316T948 1272Q813 1272 813 1382Z" />
<glyph unicode="&#xfd;" glyph-name="yacute" horiz-adv-x="1063" d="M102 1118H397L453 600Q467 478 467 307H473Q493 358 517 426T582 580L842 1118H1169L489 -160Q312 -492 6 -492Q-84 -492 -141 -473V-233Q-73 -246 -25 -246Q59 -246 122 -198T240 -49L266
0L102 1118ZM497 1266Q576 1354 719 1569H1054V1552Q1008 1496 900 1400T706 1241H497V1266Z" />
<glyph unicode="&#xfe;" glyph-name="thorn" d="M813 1139Q963 1139 1045 1033T1128 731Q1128 532 1059 350T877 74T627 -20Q449 -20 356 143H348Q336 -16 305 -152L233 -492H-68L367 1556H668L602 1249Q573 1118 522 969H530Q661 1139 813 1139ZM682 895Q611
895 552 830T457 646T420 399Q420 319 453 271T559 223Q628 223 688 288T785 471T823 719Q823 807 786 851T682 895Z" />
<glyph unicode="&#xff;" glyph-name="ydieresis" horiz-adv-x="1063" d="M102 1118H397L453 600Q467 478 467 307H473Q493 358 517 426T582 580L842 1118H1169L489 -160Q312 -492 6 -492Q-84 -492 -141 -473V-233Q-73 -246 -25 -246Q59 -246 122 -198T240 -49L266
0L102 1118ZM566 1382Q566 1460 608 1500T728 1540Q861 1540 861 1432Q861 1359 822 1316T701 1272Q566 1272 566 1382ZM968 1382Q968 1460 1010 1500T1130 1540Q1195 1540 1229 1512T1263 1432Q1263 1359 1224 1316T1103 1272Q968 1272 968 1382Z" />
<glyph unicode="&#x2013;" glyph-name="endash" horiz-adv-x="983" d="M41 436L90 666H942L893 436H41Z" />
<glyph unicode="&#x2014;" glyph-name="emdash" horiz-adv-x="1966" d="M41 436L90 666H1925L1876 436H41Z" />
<glyph unicode="&#x2018;" glyph-name="quoteleft" horiz-adv-x="440" d="M123 961L115 983Q218 1210 377 1462H602Q511 1249 408 961H123Z" />
<glyph unicode="&#x2019;" glyph-name="quoteright" horiz-adv-x="440" d="M586 1462L594 1440Q491 1213 332 961H106Q195 1167 301 1462H586Z" />
<glyph unicode="&#x201a;" glyph-name="quotesinglbase" horiz-adv-x="569" d="M377 238L385 215Q282 -12 123 -264H-102Q-14 -57 92 238H377Z" />
<glyph unicode="&#x201c;" glyph-name="quotedblleft" horiz-adv-x="887" d="M569 961L561 983Q664 1210 823 1462H1049Q952 1235 854 961H569ZM123 961L115 983Q218 1210 377 1462H602Q511 1249 408 961H123Z" />
<glyph unicode="&#x201d;" glyph-name="quotedblright" horiz-adv-x="887" d="M586 1462L594 1440Q491 1213 332 961H106Q195 1167 301 1462H586ZM1032 1462L1040 1440Q937 1213 778 961H553Q576 1014 599 1072T748 1462H1032Z" />
<glyph unicode="&#x201e;" glyph-name="quotedblbase" horiz-adv-x="1018" d="M377 238L385 215Q282 -12 123 -264H-102Q-14 -57 92 238H377ZM825 238L834 215Q734 -6 571 -264H346Q370 -207 395 -146T541 238H825Z" />
<glyph unicode="&#x2022;" glyph-name="bullet" horiz-adv-x="739" d="M104 686Q104 792 146 880T266 1016T449 1065Q569 1065 631 998T694 807Q694 630 603 530T354 430Q237 430 171 497T104 686Z" />
<glyph unicode="&#x2039;" glyph-name="guilsinglleft" horiz-adv-x="664" d="M72 569L473 1032L664 877L385 543L520 193L274 90L72 551V569Z" />
<glyph unicode="&#x203a;" glyph-name="guilsinglright" horiz-adv-x="664" d="M592 535L190 72L0 227L279 561L143 911L389 1014L592 553V535Z" />
</font>
</defs>
</svg>
